<?xml version="1.0" standalone="no"?>
<!DOCTYPE svg PUBLIC "-//W3C//DTD SVG 1.1//EN" "http://www.w3.org/Graphics/SVG/1.1/DTD/svg11.dtd" >
<svg xmlns="http://www.w3.org/2000/svg">
<defs>
  <font id="flaticon_mycollection" horiz-adv-x="300">
    <font-face font-family="flaticon_mycollection"
      units-per-em="300" ascent="300"
      descent="0" />
    <missing-glyph horiz-adv-x="0" />
    <glyph glyph-name="001-earth"
      unicode="&#xF101;"
      horiz-adv-x="300" d="M256.0661314453125 256.0661314453125C227.7351380859375 284.397125390625 190.065765234375 300 150 300S72.2648619140625 284.397125390625 43.9338685546875 256.0661314453125C39.903258984375 252.0355224609375 36.1404421875 247.8103640625 32.633971875 243.422698828125L32.579040234375 243.43643203125C32.5653076171875 243.3952330078125 32.55615234375 243.3517453125 32.5447083984375 243.310546875C11.457825 216.872405859375 0 184.3185421875 0 150C0 109.934234765625 15.602874609375 72.2648619140625 43.9338685546875 43.9338685546875C72.2648619140625 15.602874609375 109.934234765625 0 150 0S227.7351380859375 15.602874609375 256.0661314453125 43.9338685546875C284.397125390625 72.2648619140625 300 109.934234765625 300 150S284.397125390625 227.7351380859375 256.0661314453125 256.0661314453125zM150 276.5625C164.7216796875 276.5625 178.859710546875 274.0287779296875 192.0112611328125 269.387054296875C191.8212890625 265.4228208984375 191.4115904296875 261.637115625 190.4731751953125 258.0986021484375C189.019775390625 252.6237486328125 186.236572265625 248.2818603515625 182.83309921875 246.185302734375C180.159759375 244.537353515625 176.222991796875 243.635559375 172.0550537109375 242.6811216796875C171.3043212890625 242.50946015625 170.5535888671875 242.33779921875 169.809723046875 242.161559765625C159.2216490234375 239.662170703125 134.4245912109375 233.805084375 124.9076841796875 207.277679296875C124.18212890625 205.258941796875 119.7212220703125 203.281402734375 115.4045103515625 201.3679505859375C108.7348939453125 198.410797265625 100.43563828125 194.732666015625 95.1484681640625 186.6302490234375C90.57998671875 179.6333314453125 87.5152587890625 171.473694140625 86.1785888671875 163.2568359375C74.11651640625 174.256897265625 65.5609130859375 185.1493833984375 60.1020814453125 196.4607240234375C54.03213515625 209.0400697265625 52.0133970703125 221.1273193359375 54.06875625 232.4615478515625C77.2956849609375 259.446716015625 111.6851806640625 276.5625 150 276.5625zM226.8470765625 72.878265234375C225.352477734375 68.149566796875 220.80459609375 53.75518828125 216.469573828125 46.3920591796875C215.9820556640625 45.5841064453125 213.869476171875 42.5468443359375 211.7431640625 39.55535859375C199.67880234375 32.7850341796874 186.403655859375 27.92587265625 172.3228453125 25.4081724609375C171.1738587890625 32.6591490234375 169.5281982421875 40.4205322265624 166.6191099609375 47.90496796875C161.9682310546875 59.8823548828125 154.66690078125 69.4061279296875 145.51162734375 75.4463197265625C142.897796484375 77.1697998046875 140.22216796875 78.549957421875 137.86239609375 79.76531953125C134.946441796875 81.2690736328125 132.1929931640625 82.688141015625 130.4603578125 84.299469140625C127.5810240234375 86.979675 125.6263734375 91.976165625 124.488830859375 99.570465234375C124.21875 101.36261015625 123.9921568359375 103.1913755859375 123.7541197265625 105.125426953125C123.46572890625 107.45086640625 123.161315625 109.8907470703125 122.7630615234375 112.387848046875C129.4921875 112.5 144.4267271484375 114.809417578125 151.4579771484375 118.0366517578125C153.824615625 119.123840625 155.91201796875 120.371246484375 157.7545166015625 121.469879296875C159.3132017578125 122.401428515625 160.784912109375 123.280334765625 162.0574951171875 123.834228515625C170.3544615234375 127.455139453125 181.1553955078125 121.343994140625 185.6575013671875 113.5917662109375C186.378479296875 112.34893828125 187.09716796875 110.90927109375 187.8593443359375 109.384918359375C190.5281068359375 104.0405273437499 193.8468931640625 97.389221484375 200.61492890625 92.8459166015625C208.26416015625 87.712096875 215.9431458984375 87.9959109375 221.02432265625 88.18359375C225.2082826171875 88.3369447265625 226.1650083984375 88.233948046875 227.0622251953125 87.522125390625C228.77197265625 86.16943359375 229.280090625 80.5778501953125 226.8470765625 72.878265234375zM23.4375 150C23.4375 167.669677734375 27.0835875 184.50164765625 33.652496484375 199.7932435546875C35.048675390625 195.27969375 36.827087109375 190.7661439453125 38.9945982421875 186.273193359375C46.3302609375 171.075439453125 57.76748671875 156.8367005859375 73.9654541015625 142.7421568359375C75.37078828125 141.519928125 76.8013001953125 140.3022767578125 78.236389453125 139.0823367187501C86.4006041015625 132.1403501953125 94.1093443359375 125.5851744140625 97.3869322265625 117.4942019531251C99.1447447265625 113.1500244140625 99.7993470703125 107.8536984375 100.4951478515625 102.248382421875C100.742340234375 100.250244140625 100.99639921875 98.1857296875 101.3099671875 96.09832734375C102.557373046875 87.7738951171875 105.283355859375 75.714111328125 114.49813828125 67.140198046875C118.5905455078125 63.33389296875 123.12469453125 60.997008984375 127.1232603515625 58.9324951171875C129.139709765625 57.895660546875 131.0417173828125 56.91375703125 132.607269140625 55.881500390625C139.0205384765625 51.6494753906251 142.762756640625 44.5930482421875 144.7746275390625 39.418030078125C146.738433984375 34.364319140625 147.972106640625 28.9146421875 148.89678984375 23.451233203125C79.616546484375 24.046325390625 23.4375 80.582428125 23.4375 150zM251.222991796875 74.1119384765625C253.5530091796875 87.76473984375 250.213623046875 99.09210234375 241.60537734375 105.90362578125C233.7615966796875 112.1086119140625 225.5767822265625 111.80419921875 220.1591490234375 111.605071875C216.4192201171875 111.4677427734375 214.890289453125 111.49063125 213.6772154296875 112.3077392578125C212.049866015625 113.397216796875 210.4133607421875 116.67938203125 208.8294984375 119.8516845703125C207.9391476562499 121.636962890625 207.016754296875 123.4794615234375 205.922698828125 125.3654478515625C200.868987890625 134.0652468750001 192.885589453125 141.030120703125 183.4396359375 144.980621484375C173.0598451171875 149.32022109375 162.13760390625 149.4415283203125 152.6847837890625 145.31707734375C150.0480650390625 144.1658021484375 147.7592466796875 142.799377734375 145.7405091796875 141.5931703125C144.2779541015625 140.721130078125 142.8955078125 139.894866796875 141.6801451171875 139.3386843750001C138.06610078125 137.679290625 121.286773828125 134.763336328125 115.260315234375 135.662841796875C113.8069154296875 136.4067076171875 111.2983705078125 139.1372683593751 109.3345640625 148.8143917968751C107.814788671875 156.3034054687501 110.0509640625 166.5847781250001 114.772796484375 173.817444140625C116.27197265625 176.1154171875001 120.6596373046875 178.0586244140625 124.900817578125 179.9400328125C132.4790953125 183.2977294921875 142.854309375 187.8982546875 146.9673158203125 199.362945703125C151.7852783203125 212.7937318359375 163.5543820312499 216.6023255859375 175.193023828125 219.3511962890625C175.888824609375 219.5137025390625 176.584625390625 219.67391953125 177.28271484375 219.834137109375C182.84912109375 221.1090087890625 189.1571044921875 222.5532533203125 195.1240541015624 226.2268066406251C203.7117005859374 231.5185546875001 210.1043701171875 240.7012939453126 213.1256103515625 252.0881654296876C213.7229917968749 254.3380734375001 214.1738894531249 256.5948486328126 214.5172119140625 258.840179296875C251.6349791015625 236.7553710937501 276.5625 196.23641953125 276.5625 150C276.5625 121.5545654296875 267.1257017578125 95.2720640625 251.222991796875 74.1119384765625zM251.222991796875 74.1119384765625" />
    <glyph glyph-name="002-down-arrow"
      unicode="&#xF102;"
      horiz-adv-x="300" d="M150 106.25A24.9125 24.9125 0 0 0 132.325 113.5625L66.1625 179.7375L83.8375 197.4125L150 131.25L216.1625 197.4125L233.8375 179.7375L167.675 113.575A24.9125 24.9125 0 0 0 150 106.25z" />
    <glyph glyph-name="004-search"
      unicode="&#xF103;"
      horiz-adv-x="300" d="M271.375 46.375L236 81.625A119 119 0 1 1 218.375 64.0000000000001L253.625 28.6250000000001A12.5 12.5 0 0 1 271.375 28.6250000000001A12.5 12.5 0 0 1 271.375 46.3750000000001zM50 156.25A93.75 93.75 0 1 0 143.75 62.5A93.75 93.75 0 0 0 50 156.25z" />
    <glyph glyph-name="005-right-arrow"
      unicode="&#xF104;"
      horiz-adv-x="300" d="M249.0375 145.225C250.30125 148.2825 250.30125 151.7175 249.0375 154.775C248.41375 156.3 247.49125 157.68625 246.325 158.85L196.325 208.85C195.1725 210.043875 193.7925 210.996125 192.2675 211.65125S189.1025 212.65125 187.4425 212.665625S184.13625 212.36375 182.6 211.73525S179.66875 210.178625 178.495 209.005C177.32125 207.83125 176.39375 206.435625 175.765 204.899375C175.13625 203.36325 174.82 201.71725 174.83375 200.0575C174.84875 198.39775 175.19375 196.7575 175.84875 195.2325C176.50375 193.707375 177.45625 192.328125 178.65 191.175L207.325 162.5H100C96.68475 162.5 93.505375 161.1825 91.161125 158.83875C88.817 156.495 87.5 153.315 87.5 150S88.817 143.505 91.161125 141.16125C93.505375 138.8175 96.68475 137.5 100 137.5H207.325L178.6625 108.8375C177.46875 107.685 176.51625 106.305 175.86125 104.78S174.86125 101.615 174.84625 99.955C174.8325 98.295 175.14875 96.64875 175.7775 95.1125C176.40625 93.5775 177.33375 92.18125 178.5075 91.0075000000001S181.07625 88.9062500000001 182.6125 88.2775000000001S185.795 87.3325 187.455 87.3462500000001C189.115 87.3612500000001 190.755 87.70625 192.28 88.36125S195.185 89.96875 196.3375 91.1625L246.3375 141.1625C247.49875 142.3237500000001 248.41625 143.7050000000001 249.0375 145.225zM125 75H87.5C84.18475 75 81.005375 76.3175 78.661125 78.66125C76.317 81.005 75 84.185 75 87.5V212.5C75 215.81525 76.317 218.994625 78.661125 221.338875C81.005375 223.683 84.18475 225 87.5 225H125C128.315 225 131.495 226.317 133.83875 228.661125C136.1825 231.005375 137.5 234.18475 137.5 237.5S136.1825 243.994625 133.83875 246.338875C131.495 248.683 128.315 250 125 250H87.5C77.554375 250 68.016125 246.049125 60.9835 239.0165S50 222.445625 50 212.5V87.5C50 77.555 53.950875 68.01625 60.9835 60.98375S77.554375 50 87.5 50H125C128.315 50 131.495 51.3175 133.83875 53.66125S137.5 59.185 137.5 62.5S136.1825 68.995 133.83875 71.33875S128.315 75 125 75z" />
    <glyph glyph-name="006-left-align"
      unicode="&#xF105;"
      horiz-adv-x="300" d="M300 137.5V162.5L31.9375 162.1125L85.9625 216.1625L68.2875 233.8375L10.9625 176.5125A37.5 37.5 0 0 1 10.9625 123.4875L68.2875 66.1625L85.9625 83.8375L32.6875 137.1125z" />
    <glyph glyph-name="007-right"
      unicode="&#xF106;"
      horiz-adv-x="300" d="M289.05 176.5125L231.725 233.8375L214.05 216.1625L267.325 162.875L0 162.5V137.5L268.0750000000001 137.875L214.0375 83.8375L231.7125 66.1625L289.05 123.4875000000001A37.5875 37.5875 0 0 1 289.05 176.5125000000001z" />
    <glyph glyph-name="008-right-up"
      unicode="&#xF107;"
      horiz-adv-x="300" d="M212.5 75C205 75 200 80 200 87.5V200H87.5C80 200 75 205 75 212.5S80 225 87.5 225H212.5C220 225 225 220 225 212.5V87.5C225 80 220 75 212.5 75zM87.5 75C80 75 75 80 75 87.5C75 91.25 76.25 93.75 78.75 96.25L203.75 221.25C208.75 226.25 216.25 226.25 221.25 221.25S226.25 208.75 221.25 203.75L96.25 78.75C93.75 76.25 91.25 75 87.5 75z" />
    <glyph glyph-name="009-checked"
      unicode="&#xF108;"
      horiz-adv-x="300" d="M150 290.625C72.46875 290.625 9.375 227.53125 9.375 150S72.46875 9.375 150 9.375S290.625 72.46875 290.625 150S227.53125 290.625 150 290.625zM187.5 103.125H112.5C107.34375 103.125 103.125 107.34375 103.125 112.5S107.34375 121.875 112.5 121.875H187.5C192.65625 121.875 196.875 117.65625 196.875 112.5S192.65625 103.125 187.5 103.125zM202.875 189.65625L146.625 142.78125C144.84375 141.375 142.78125 140.625 140.625 140.625C138.1875 140.625 135.84375 141.5625 133.96875 143.34375L105.84375 171.46875C102.1875 175.125 102.1875 181.03125 105.84375 184.6875S115.40625 188.34375 119.0625 184.6875L141.09375 162.65625L190.78125 204.09375C194.8125 207.375 200.71875 206.90625 204 202.875C207.375 198.9375 206.8125 193.03125 202.875 189.65625z" />
    <glyph glyph-name="010-play-buttton"
      unicode="&#xF109;"
      horiz-adv-x="300" d="M274.6875 162.3005859375L39.5162109375 298.0798828125A14.1796875 14.1796875 0 0 1 32.433984375 300.0046875H32.39296875A14.2072265625 14.2072265625 0 0 1 25.306640625 298.0787109375A14.0625 14.0625 0 0 1 18.2109375 285.7787109375V14.2224609375A14.171484375 14.171484375 0 0 1 39.515625 1.9212890625L274.6875000000001 137.701171875A14.201953125 14.201953125 0 0 1 274.6875000000001 162.3005859375z" />
    <glyph glyph-name="011-live-chat"
      unicode="&#xF10A;"
      horiz-adv-x="300" d="M273.6328125 211.48828125H255.2220703125C239.5634765625 248.668359375 205.083984375 275.6876953125 165.3896484375 280.848046875C126.0533203125 286.0921875 87.4037109375 270.9515625 62.1181640625 240.4734375C54.6849609375 231.5126953125 48.788671875 221.7708984375 44.471484375 211.48828125H26.3671875C11.827734375 211.48828125 0 199.660546875 0 185.12109375V149.96484375C0 135.425390625 11.827734375 123.59765625 26.3671875 123.59765625H62.4615234375L58.68515625 135.1248046875C47.6900390625 168.701953125 53.8787109375 203.00859375 75.65390625 229.246875C97.0517578125 255.0392578125 129.7271484375 267.8021484375 163.1068359375 263.424609375C198.4078125 258.826171875 229.0494140625 233.8611328125 241.1900390625 199.80703125L241.2638671875 199.6095703125C243.2208984375 194.408203125 244.5943359375 189.0609375 245.38359375 183.558984375C248.0185546875 167.122265625 246.516796875 150.462890625 241.0494140625 135.38203125L241.0107421875 135.2771484375C227.43984375 96.746484375 190.939453125 70.86328125 150.1716796875 70.86328125C135.5373046875 70.86328125 123.6328125 59.0355468750001 123.6328125 44.49609375S135.460546875 18.1289062500001 150 18.1289062500001S176.3671875 29.956640625 176.3671875 44.49609375V56.3496093750001C211.461328125 64.691015625 240.938671875 89.5681640625001 255.1072265625 123.5982421875001H273.6328125000001C288.172265625 123.5982421875001 300 135.4259765625001 300 149.9654296875001V185.1216796875C300 199.6611328125001 288.172265625 211.4882812500001 273.6328125 211.4882812500001zM70.8984375 106.01953125V88.44140625H150C193.6189453125 88.44140625 229.1015625 123.9240234375 229.1015625 167.54296875S193.6189453125 246.64453125 150 246.64453125S70.8984375 211.1619140625 70.8984375 167.54296875C70.8984375 149.75859375 76.8720703125 132.575390625 87.78984375 118.679296875C85.669921875 111.2724609375 78.9064453125 106.01953125 70.8984375 106.01953125zM176.3671875 176.33203125H193.9453125V158.75390625H176.3671875zM141.2109375 176.33203125H158.7890625V158.75390625H141.2109375zM106.0546875 176.33203125H123.6328125V158.75390625H106.0546875z" />
    <glyph glyph-name="012-right-down"
      unicode="&#xF10B;"
      horiz-adv-x="300" d="M212.5 225A12.5 12.5 0 0 1 200 212.5V117.625L96.375 221.375A12.5 12.5 0 0 1 78.625 203.625L182.375 100.0000000000001H87.5A12.5 12.5 0 0 1 87.5 75H212.5A12.5 12.5 0 0 1 217.25 76A12.5 12.5 0 0 1 224 82.75A12.5 12.5 0 0 1 225 87.5V212.5A12.5 12.5 0 0 1 212.5 225z" />
    <glyph glyph-name="013-left"
      unicode="&#xF10C;"
      horiz-adv-x="300" d="M172.1875 66.1625L106.025 132.325A25 25 0 0 0 106.025 167.675L172.1875 233.8375L189.8625 216.1625L123.75 150L189.9125 83.8375z" />
    <glyph glyph-name="014-right-arrow-1"
      unicode="&#xF10D;"
      horiz-adv-x="300" d="M135.1375 66.1625L117.5 83.8375L183.6125 150L117.5 216.1625L135.1875 233.8375L201.25 167.675A25 25 0 0 0 201.25 132.325z" />
    <glyph glyph-name="015-quotation"
      unicode="&#xF10E;"
      horiz-adv-x="300" d="M120.04453125 114.357421875C120.04453125 141.7734375 146.88046875 153.901171875 146.88046875 185.642578125H110.982421875C110.982421875 162.683203125 84.5671875 140.935546875 84.5671875 114.357421875zM188.59921875 114.357421875C188.59921875 141.7734375 215.43515625 153.901171875 215.43515625 185.642578125H179.537109375C179.537109375 162.683203125 153.121875 140.935546875 153.121875 114.357421875z" />
    <glyph glyph-name="016-rate-star-button"
      unicode="&#xF10F;"
      horiz-adv-x="300" d="M150 73.75L242.5 6.25L207.5 116.25L300 181.25L187.5 181.25L150 293.75L112.5 181.25L0 181.25L92.5 116.25L57.5 6.25z" />
    <glyph glyph-name="017-book"
      unicode="&#xF110;"
      horiz-adv-x="300" d="M250 78.075V262.4875C250 274.3625 244.5625 285.275 235.075 292.425C225.6 299.575 213.6375 301.825 202.2 298.5375L164.7 287.825C159.125 286.2375 154.1375 283.4 150 279.6875C145.8625 283.4 140.875 286.2375 135.3 287.825L97.8 298.5375C86.35 301.825 74.3875 299.575 64.925 292.425C55.4375 285.275 50 274.3625 50 262.4875V78.075L150 49.5zM162.5 251.775C162.5 257.325 166.225 262.2625 171.575 263.7875L209.075 274.5C210.225 274.825 211.3875 274.9875 212.5375 274.9875C215.2125 274.9875 217.825 274.125 220.025 272.4625C223.1875 270.075 225 266.4375 225 262.4875V96.925L162.5 79.0625zM137.5 79.075L75 96.9375V262.4875C75 266.4375 76.8125 270.075 79.975 272.4625C83.125 274.8375 87.125 275.5875 90.925 274.5L128.425 263.7875C133.7625 262.2625 137.4875 257.325 137.4875 251.775V79.075zM300 262.5V42.3625L150 -0.5L0 42.3625V250C0 261.875 5.4375 272.7875 14.925 279.9375C18.0375 282.2875 21.4625 283.8875 25 285.1625V61.2125L150 25.5L275 61.2125V297.6625C278.5375 296.3875 281.975 294.7875 285.075 292.4375C294.5625 285.2875 300 274.375 300 262.5z" />
    <glyph glyph-name="018-apple"
      unicode="&#xF111;"
      horiz-adv-x="300" d="M206.2370728296514 300C190.2434165424812 298.8937564818956 171.5497760755308 288.6563164668957 160.6560899057232 275.325144579231C150.7186481329211 263.2314654406322 142.5436960330311 245.269070689039 145.7311773563827 227.8129229711545C163.2060749644045 227.269176157171 181.2622191666845 237.7503647439566 191.7246578633328 251.3065353132697C201.512100515036 263.9252113757146 208.9183071192942 281.7751067864837 206.2370728296514 300zM269.4429524827003 199.3505897426383C254.0867924602004 218.6067269137095 232.5056689120962 229.7816614355775 212.1245383327832 229.7816614355775C185.218445985668 229.7816614355775 173.837262672289 216.9004869112095 155.1436222053386 216.9004869112095C135.86873514413 216.9004869112095 121.2250709468499 229.7441616553028 97.9564572863831 229.7441616553028C75.1003412089382 229.7441616553028 50.7629838106417 215.7754935029678 35.3318242275924 191.888133467968C13.638201338664 158.2508305615397 17.3506795858618 95.0074511282161 52.5067235934164 41.1390167635737C65.0878998755866 21.8641297023651 81.8878014386634 0.1892567035741 103.8626726796523 0.0017578022004C123.4188080929213 -0.1857410991732 128.9312757933059 12.5454343040959 155.4248705573991 12.6766835350575C181.9184653214922 12.8266826561563 186.9434358783054 -0.1669912090359 206.4620715112997 0.0392575824752C228.4556926424259 0.2080065937114 246.1743388222335 24.2266158596728 258.7555151044037 43.5015029208814C267.774212260475 57.3201719521175 271.1304425950629 64.276381193079 278.1241516162991 79.8762897873646C227.2556996736347 99.24492629926 219.099497463882 171.5820024492044 269.4429524827003 199.3505897426383z" />
    <glyph glyph-name="019-up-arrow"
      unicode="&#xF112;"
      horiz-adv-x="300" d="M216.1625 109.9125L150 176.075L83.8375 109.9125L66.1625 127.5875L132.325 193.75A25 25 0 0 0 167.675 193.75L233.8375 127.5875z" />
    <glyph glyph-name="020-facebook"
      unicode="&#xF113;"
      horiz-adv-x="299.4140858917255" d="M169.9218882751475 0.5859141082745H121.8795868655927C113.8549893636711 0.5859141082745 107.3272788927562 7.1136245791894 107.3272788927562 15.1382226670486V123.5000475390662H79.2984073670631C71.2738092792039 123.5000475390662 64.746098808289 130.0300466820349 64.746098808289 138.0523555119028V184.4856173426264C64.746098808289 192.5102148445481 71.2738092792039 199.0379253154629 79.2984073670631 199.0379253154629H107.3272788927562V222.2900329914088C107.3272788927562 245.3453019801017 114.5668120755322 264.9604771453498 128.2608135360011 279.0115342977761C142.0166126575479 293.1266777833342 161.2403997062812 300.5859375457764 183.8539268635881 300.5859375457764L220.4933340229167 300.5264285567523C228.5041989065781 300.5126953525543 235.0204648453488 293.9849848816395 235.0204648453488 285.9741199979781V242.8619340126511C235.0204648453488 234.8373359247919 228.4950436324253 228.3096260398146 220.4727348025574 228.3096260398146L195.8038483049881 228.3004701797243C188.2805016234767 228.3004701797243 186.3647606534969 226.7921392025109 185.9550619886767 226.3297975648279C185.2798609593641 225.5630437939878 184.4764855059754 223.3955324918385 184.4764855059754 217.41027186799V199.0402139875167H218.6187914936555C221.1891348585261 199.0402139875167 223.6793694280757 198.4062113989228 225.8194149077668 197.2114484149569C230.4359617528095 194.6319497759336 233.3061399067296 189.7544773245686 233.3061399067296 184.483328084635L233.2878293584241 138.050066839849C233.2878293584241 130.0300466820349 226.7601188875092 123.50233621112 218.7355213855875 123.50233621112H184.4764855059754V15.1382226670486C184.4764855059754 7.1136245791894 177.9464857770691 0.5859141082745 169.9218882751475 0.5859141082745zM124.9145605402001 18.1731957557184H166.8869146005402V131.3735833104362C166.8869146005402 136.7317073618521 171.2471143552433 141.0896178585639 176.6029497346055 141.0896178585639H215.7005477109803L215.7165695872321 181.450643668019H176.6006610625517C171.244825097252 181.450643668019 166.8869146005403 185.8085541647308 166.8869146005403 191.1666782161467V217.41027186799C166.8869146005403 224.281305412602 167.5850046941411 232.0953316090103 172.7714672087084 237.9684396850344C179.0382526592385 245.0683550834653 188.9145042120707 245.8877524131057 195.799270374943 245.8877524131057L217.4331837838425 245.8969071013209V282.943724253416L183.8401936593902 282.9986558983325C147.4983332029948 282.9986558983325 124.9145605402001 259.73510427618 124.9145605402001 222.2900329914088V191.1666782161467C124.9145605402001 185.8108434227221 120.5566500434883 181.450643668019 115.2008146641262 181.450643668019H82.3333804557329V141.0896178585639H115.2008146641262C120.5566500434883 141.0896178585639 124.9145605402001 136.7317073618521 124.9145605402001 131.3735833104362zM220.4590015983595 282.9391463233708H220.4612902704133zM220.4590015983595 282.9391463233708" />
    <glyph glyph-name="022-instagram-logo"
      unicode="&#xF114;"
      horiz-adv-x="300" d="M217.2077864464727 300H82.7868900942252C37.1382265782578 300 0 262.8599989353081 0 217.2113354193407V82.7904390670933C0 37.1400010646919 37.1382265782578 0.001774486434 82.7868900942252 0.001774486434H217.2077864464727C262.8599989353082 0.001774486434 299.998225513566 37.1417755511259 299.998225513566 82.7904390670933V217.2113354193407C300 262.8599989353081 262.8599989353082 300 217.2077864464727 300zM273.3827034892319 82.7904390670933C273.3827034892319 51.8167783607294 248.1832216392706 26.6190709972022 217.2095609329067 26.6190709972022H82.7868900942252C51.8150038742954 26.6172965107681 26.6172965107682 51.8167783607294 26.6172965107682 82.7904390670933V217.2113354193407C26.6172965107682 248.1832216392706 51.8150038742954 273.3827034892318 82.7868900942252 273.3827034892318H217.2077864464727C248.1814471528365 273.3827034892318 273.3809290027978 248.1832216392706 273.3809290027978 217.2113354193407V82.7904390670933zM149.999112756783 227.2992907969219C107.3741741244388 227.2992907969219 72.6971602302101 192.6222769026931 72.6971602302101 149.9973382703489C72.6971602302101 107.3741741244388 107.3741741244388 72.6989347166441 149.999112756783 72.6989347166441S227.3010652833559 107.3741741244388 227.3010652833559 149.9973382703489C227.3010652833559 192.6222769026931 192.6240513891272 227.2992907969219 149.999112756783 227.2992907969219zM149.999112756783 99.3180057138463C122.0527259069105 99.3180057138463 99.3144567409782 122.0527259069104 99.3144567409782 149.999112756783C99.3144567409782 177.9472740930895 122.0509514204764 200.6837687725877 149.999112756783 200.6837687725877S200.6837687725878 177.9472740930895 200.6837687725878 149.999112756783C200.6837687725878 122.0527259069104 177.9454996066555 99.3180057138463 149.999112756783 99.3180057138463zM230.5430519983675 249.8689837516193C225.4147862039595 249.8689837516193 220.3770192176881 247.7928346237793 216.7552924057896 244.1551374339743C213.1158207295505 240.5351851085099 211.0237012238042 235.4956436358044 211.0237012238042 230.3496329770559C211.0237012238042 225.2195926962139 213.1175952159846 220.1818257099425 216.7552924057896 216.5441285201375C220.3752447312541 212.924176194673 225.4147862039595 210.8302822024926 230.5430519983675 210.8302822024926C235.689062657116 210.8302822024926 240.7108592654809 212.924176194673 244.3485564552859 216.5441285201375C247.986253645091 220.1818257099424 250.0624027729308 225.2213671826479 250.0624027729308 230.3496329770559C250.0624027729308 235.4956436358044 247.986253645091 240.5351851085099 244.3485564552859 244.1551374339743C240.7286041298215 247.7928346237793 235.689062657116 249.8689837516193 230.5430519983675 249.8689837516193z" />
    <glyph glyph-name="023-youtube"
      unicode="&#xF115;"
      horiz-adv-x="300" d="M150 32.8083799821088C111.8277595696724 32.8083799821088 78.3279490294581 35.3033895722896 56.9463379571938 37.3964319058092C29.8785894816615 40.0455484763136 8.3135735240692 60.6882663843651 4.5030879991875 87.5942904242727C-1.5012246524292 130.2104370856788 -1.5012246524292 169.7895629143212 4.5030879991875 212.4062955338274C8.3135735240692 239.3117336156349 29.8785894816615 259.9544515236864 56.9463379571938 262.6035680941908C78.327363071358 264.6966104277104 111.8277595696724 267.1916200178913 150 267.1916200178913S221.6720509705419 264.6966104277104 243.0536620428062 262.6035680941908C270.1214105183386 259.9544515236864 291.6864264759308 239.3117336156349 295.4969120008126 212.4057095757273C301.5012246524292 169.7895629143212 301.5012246524292 130.2104370856788 295.4969120008126 87.5937044661726C291.6864264759308 60.6882663843651 270.1214105183386 40.0455484763136 243.0536620428062 37.3964319058092C221.6720509705419 35.3033895722896 188.1722404303277 32.8083799821087 150 32.8083799821087zM150 243.753296014313C112.7740819013169 243.753296014313 80.0916829107273 241.3192260665415 59.2298166732424 239.2759901715295C42.9601040661586 237.6833560554864 29.9992968502799 225.2827247832932 27.7105445113305 209.1196565504256C24.8721634744972 189.0775456949658 23.4330503806775 169.1871979874293 23.4330503806775 149.9994140419S24.8721634744972 110.9218683469341 27.7105445113305 90.8797574914743C29.9992968502799 74.7161033005067 42.9601040661586 62.3154720283135 59.2298166732424 60.7228379122704C80.0922688688274 58.6801879753585 112.7740819013169 56.2455320694868 150 56.2455320694868S219.9083170892727 58.6796020172585 240.7701833267576 60.7228379122704C257.0398959338414 62.3154720283135 270.0007031497201 74.7161033005067 272.2894554886695 90.8791715333742C275.1278365255028 110.921282388834 276.5669496193226 130.8116300963706 276.5669496193226 149.9994140418999S275.1278365255028 189.0769597368657 272.2894554886695 209.1190705923255C270.0007031497201 225.2827247832932 257.0398959338414 237.6833560554863 240.7701833267576 239.2759901715295C219.9083170892727 241.3192260665414 187.2259180986832 243.753296014313 150 243.753296014313zM134.7984890093793 94.4535159439199C119.1299694129872 94.2402271954874 105.1003746225453 107.8274236203617 105.4671843932013 123.6816919344821V176.6112871155627C105.4671843932013 187.211269146181 110.9886675703443 196.6797660855265 120.2374302221563 201.9393259919294C129.5588516783794 207.2410748815388 140.626428272869 207.1320866749222 149.8394474805755 201.6510346066854L194.3218706907665 175.1862370161451C213.2494892398561 164.3266755471872 213.2448015750554 135.9633737123571 194.3218706907665 125.1073279919998L149.8394474805755 98.6425304014595C145.1482669312593 95.8516119707334 139.9754288236696 94.4535159439199 134.7984890093793 94.4535159439199zM134.8260290400834 182.3724271556422C133.4589887925747 182.3724271556422 132.3714505588087 181.8755346867664 131.8241656933252 181.5643909356189C130.7342836271588 180.9444472657242 128.9060943548797 179.4772081831002 128.9060943548797 176.6112871155627V123.6816919344821C128.9060943548797 120.8151849088445 130.7342836271588 119.3479458262205 131.8241656933252 118.7285881144259C132.7365024551645 118.2094292377467 135.1500638694329 117.1752131910888 137.856018375646 118.7860120082347L182.338441585837 145.250809598775C186.1254887867152 147.5114359489201 186.130762409616 152.7774413944241 182.338441585837 155.0427554093699L137.856018375646 181.5075529999102C136.7731678066807 182.1515209519085 135.7371938857225 182.3724271556422 134.8260290400834 182.3724271556422z" />
    <glyph glyph-name="024-user"
      unicode="&#xF116;"
      horiz-adv-x="300" d="M154.1095890410959 23.4375H35.9245045009785C30.911356555773 23.4375 27.8887902152642 26.2298583984375 26.5311581213307 27.8938294921875C24.1897015655577 30.7685853515625 23.2838489236791 34.5085142578125 24.0452236790607 38.1591796875C36.2386861056751 96.6156005859375 87.9273176125245 139.30206328125 147.5989174168297 140.6867982421875C148.5896219178082 140.6501771484375 149.5849133072407 140.625 150.587084148728 140.625C194.6115152641878 140.625 230.4305283757339 176.37176484375 230.4305283757339 220.3125S194.6115152641878 300 150.587084148728 300C106.560359295499 300 70.7436399217221 264.25323515625 70.7436399217221 220.3125C70.7436399217221 194.23370390625 83.3613628180039 171.038818359375 102.8245778864971 156.4933775390625C84.9941906066536 150.636291796875 68.259998630137 141.52450546875 53.6172945205479 129.5036314453125C26.7696610567515 107.4623109375 8.1022197651663 76.718902734375 1.0549168297456 42.9359437499999C-1.1535287671233 32.350158984375 1.4929367906066 21.4782714843749 8.3132031311154 13.10577421875C15.0990704500978 4.7767640625 25.1643528375734 0 35.9245045009785 0H154.1095890410959C160.5927410958904 0 165.8512720156556 5.2459716796875 165.8512720156556 11.71875S160.5927410958904 23.4375 154.1095890410959 23.4375zM94.2270058708415 220.3125C94.2270058708415 251.328277734375 119.5083170254403 276.5625 150.587084148728 276.5625C181.6635581213307 276.5625 206.9471624266145 251.328277734375 206.9471624266145 220.3125C206.9471624266145 189.7407533203125 182.3836532289628 164.7880552734375 151.9194898238748 164.078521875C151.4814704500978 164.1288755859375 151.0388636007828 164.1609193359375 150.587084148728 164.1609193359375C149.6697651663405 164.1609193359375 148.754739334638 164.1471861328125 147.8397135029354 164.13116484375C118.0337266144814 165.56396484375 94.2270058708415 190.21453828125 94.2270058708415 220.3125zM300.880626223092 58.6051939453125C300.880626223092 52.132415625 295.6220953033268 46.8864439453125 289.1389432485323 46.8864439453125H201.0763209393346C194.5908757338552 46.8864439453125 189.334637964775 52.132415625 189.334637964775 58.6051939453125C189.334637964775 65.07568359375 194.5908757338552 70.3239439453125 201.0763209393346 70.3239439453125H289.1389432485323C295.6220953033268 70.3239439453125 300.880626223092 65.07568359375 300.880626223092 58.6051939453125zM201.0763209393346 117.1875H289.1389432485323C295.6220953033268 117.1875 300.880626223092 111.9415283203125 300.880626223092 105.46875S295.6220953033268 93.75 289.1389432485323 93.75H201.0763209393346C194.5908757338552 93.75 189.334637964775 98.9959716796875 189.334637964775 105.46875S194.5908757338552 117.1875 201.0763209393346 117.1875zM300.880626223092 11.71875C300.880626223092 5.2459716796875 295.6220953033268 0 289.1389432485323 0H201.0763209393346C194.5908757338552 0 189.334637964775 5.2459716796875 189.334637964775 11.71875S194.5908757338552 23.4375 201.0763209393346 23.4375H289.1389432485323C295.6220953033268 23.4375 300.880626223092 18.1915283203125 300.880626223092 11.71875zM300.880626223092 11.71875" />
    <glyph glyph-name="025-check"
      unicode="&#xF117;"
      horiz-adv-x="300" d="M208.61125 246.279C197.72375 249.8425 182.895 250 150 250C132.35625 250 119.74925 249.99325 109.81425 249.315375C99.991375 248.64525 93.69675 247.361 88.58225 245.2425C73.268 238.8991250000001 61.100875 226.7320000000001 54.7575 211.41775C52.639 206.30325 51.354875 200.008625 50.684625 190.185875C50.00675 180.25075 50 167.64375 50 150S50.00675 119.74875 50.684625 109.81375C51.354875 99.99125 52.639 93.6962500000001 54.7575 88.5825C61.100875 73.2675 73.268 61.10125 88.58225 54.7575C93.69675 52.63875 99.991375 51.355 109.81425 50.685C119.74925 50.00625 132.35625 50 150 50S180.25125 50.00625 190.18625 50.685C200.00875 51.355 206.30375 52.63875 211.4175 54.7575C226.7325 61.10125 238.89875 73.2675 245.2425 88.5825C247.36125 93.69625 248.645 99.99125 249.315 109.81375C249.99375 119.74875 250 132.35625 250 150C250 159.5725 250 167.7025 249.885 174.79875C249.77375 181.701375 255.28 187.38725 262.1825 187.498375C269.085 187.609625 274.77125 182.104 274.8825 175.201375C275 167.8825 275 159.55875 275 150.08V149.54C275 132.45625 275 118.99875 274.2575 108.1125C273.5 97.01625 271.93 87.68375 268.34 79.015C259.45875 57.575 242.425 40.54125 220.985 31.66C212.31625 28.07 202.98375 26.4999999999999 191.8875 25.7425C181.00125 24.9999999999999 167.54375 24.9999999999999 150.46125 24.9999999999999H149.53875C132.45625 24.9999999999999 118.99825 24.9999999999999 108.1125 25.7425C97.01675 26.4999999999999 87.683625 28.0699999999999 79.01525 31.66C57.57525 40.54125 40.54125 57.575 31.6605 79.015C28.07 87.68375 26.499625 97.01625 25.742625 108.1125C24.999875 118.99875 25 132.45625 25 149.54V150.46C25 167.54375 24.999875 181.001875 25.742625 191.887625C26.499625 202.98325 28.07 212.3165 31.6605 220.984875C40.54125 242.42475 57.57525 259.45875 79.01525 268.3395C87.683625 271.930125 97.01675 273.500375 108.112375 274.257375C118.99825 275.000125 132.45625 275.000125 149.54 275H150C150.905 275 151.80125 275.0001250000001 152.6875 275.00025C182.0575 275.00475 201.20625 275.007625 216.38875 270.038625C222.9487499999999 267.89125 226.5275 260.831625 224.38 254.2705C222.2324999999999 247.7095 215.1725 244.1315 208.6112499999999 246.279zM273.2962500000001 237.54975C276.7750000000001 231.5865 274.76125 223.932625 268.7975 220.454125L266.0275000000001 218.837875C221.0912500000001 192.62525 184.9875000000001 153.61375 162.3275000000001 106.78625C160.5650000000001 103.145 157.1500000000001 100.58125 153.1612500000001 99.90625S145.1037500000001 100.5275 142.2412500000001 103.3875L92.0730000000001 153.5025C87.1888750000001 158.38125 87.1846250000001 166.295 92.0636250000001 171.18C96.9425000000001 176.063875 104.857125 176.068125 109.7412500000001 171.18875L147.8725000000001 133.0975C172.8162500000001 177.5485 209.2212500000001 214.644125 253.4300000000001 240.432375L256.20125 242.0485C262.1637500000001 245.527 269.8175000000001 243.512875 273.2962500000001 237.54975z" />
    <glyph glyph-name="026-exchange"
      unicode="&#xF118;"
      horiz-adv-x="300" d="M225 175C225 182.5 220 187.5 212.5 187.5H67.5L96.25 216.25C101.25 221.25 101.25 228.75 96.25 233.75S83.75 238.75 78.75 233.75L28.75 183.75C25 180 23.75 175 26.25 170C27.5 165 32.5 162.5 37.5 162.5H212.5C220 162.5 225 167.5 225 175zM273.75 130C272.5 135 267.5 137.5 262.5 137.5H87.5C80 137.5 75 132.5 75 125S80 112.5 87.5 112.5H232.5L203.75 83.75C198.75 78.75 198.75 71.2500000000001 203.75 66.25C208.75 61.25 216.25 61.25 221.25 66.25L271.25 116.25C275 120 276.25 125 273.75 130z" />
    <glyph glyph-name="027-checked-1"
      unicode="&#xF119;"
      horiz-adv-x="300" d="M0 150C0 26.475 26.475 0 150 0S300 26.475 300 150S273.5250000000001 300 150 300S0 273.525 0 150zM208.838671875 196.3388671875C213.7201171875 191.457421875 213.7201171875 183.542578125 208.838671875 178.6611328125L146.3384765625 116.1615234375C141.45703125 111.280078125 133.5421875 111.280078125 128.6607421875 116.1615234375L97.4103515625 147.411328125C92.52890625 152.2927734375 92.52890625 160.2076171875 97.4103515625 165.0890625S110.206640625 169.9705078125 115.0880859375 165.0890625L137.4990234375 142.6775390625L191.1603515625 196.3388671875C196.0423828125 201.2203125 203.9572265625 201.2203125 208.838671875 196.3388671875z" />
    <glyph glyph-name="028-check-1"
      unicode="&#xF11A;"
      horiz-adv-x="300" d="M293.0288973309765 250.9667275408459C283.7467894567224 260.2611404630995 268.6742775667256 260.2552809164331 259.3798646444721 250.9667275408459L107.9357793685362 99.5167827182437L40.6254089475278 166.8265671845855C31.3309960252742 176.1209801068391 16.2649296366104 176.1209801068391 6.9705167143569 166.8265671845855C-2.3238962078967 157.5321542623319 -2.3238962078967 142.4660878736682 6.9705167143569 133.1716749514146L91.1048175239509 49.0373741418206C95.7490942117445 44.393097454027 101.8389210621405 42.0650995634638 107.9293338672031 42.0650995634638C114.0197466722658 42.0650995634638 120.1154330693282 44.3872379073606 124.7597097571218 49.0373741418206L293.0288973309765 217.3124212623417C302.3233102532301 226.6003886832622 302.3233102532301 241.672900573259 293.0288973309765 250.9667275408459z" />
    <glyph glyph-name="029-thunder"
      unicode="&#xF11B;"
      horiz-adv-x="300" d="M120.1654690731818 0.7119154529599C124.1340315117803 -0.9843769226111 128.7482983365202 0.4318367809312 131.0662716138117 4.0933673698581L236.5352276078664 171.6718196715228C238.2432387563257 174.3841296565032 238.3463639577421 177.8089410330879 236.8012437524292 180.6067980601525C235.2561235471163 183.4134441668831 232.3035787179272 185.1560256953627 229.1020099648633 185.1560256953627H158.7120287344312L184.8905954894443 289.0482207973062C185.9464569266737 293.2452993072252 183.8089527518609 297.5800733985809 179.8351168654627 299.2880845470401C175.8870622794186 300.9873066158332 171.2434985224581 299.5628897712691 168.9343143248327 295.9066326301418L63.465358330778 128.3281803284772C61.7573471823188 125.6158703434968 61.6542219809023 122.1910589669121 63.1993421862152 119.3932019398475C64.7444623915282 116.5865558331169 67.6970072207173 114.8439743046373 70.8985759737812 114.8439743046373H141.2885572042133L115.1099904492001 10.9517792026938C114.0541290119708 6.7541147541304 116.1910472481392 2.4199266014191 120.1654690731818 0.7119154529599z" />
    <glyph glyph-name="030-turn-up"
      unicode="&#xF11C;"
      horiz-adv-x="300" d="M293.13515625 191.59453125A23.4375 23.4375 0 1 0 259.98984375 158.44921875L215.625 202.8134765625V40.6054687500001A23.4375 23.4375 0 0 0 192.1875 17.1679687500001H23.4375A23.4375 23.4375 0 0 0 23.4375 64.04296875H168.75V202.8140625L124.38515625 158.4492187500001A23.4375 23.4375 0 0 0 91.2392578125 191.5945312500001L175.6142578125 275.9695312500001A23.4375 23.4375 0 0 0 208.76015625 275.9695312500001z" />
    <glyph glyph-name="031-download"
      unicode="&#xF11D;"
      horiz-adv-x="300" d="M141.1611328125 53.661328125C141.1634765625 53.658984375 141.1658203125 53.6572265625 141.1681640625 53.6548828125C141.45703125 53.3666015625 141.7611328125 53.09296875 142.076953125 52.8333984375C142.2216796875 52.714453125 142.374609375 52.611328125 142.5234375 52.4994140625C142.7009765625 52.36640625 142.875 52.2287109375 143.0595703125 52.105078125C143.2376953125 51.9861328125 143.422265625 51.8830078125 143.605078125 51.7740234375C143.77265625 51.673828125 143.9361328125 51.5689453125 144.1083984375 51.476953125C144.2947265625 51.37734375 144.486328125 51.29296875 144.6767578125 51.2033203125C144.8560546875 51.118359375 145.0330078125 51.0287109375 145.2169921875 50.9525390625C145.4015625 50.8763671875 145.590234375 50.8142578125 145.777734375 50.7474609375C145.9751953125 50.6765625 146.1697265625 50.6009765625 146.3712890625 50.5400390625C146.5587890625 50.483203125 146.74921875 50.4416015625 146.9390625 50.394140625C147.1447265625 50.3419921875 147.348046875 50.2845703125 147.5578125 50.24296875C147.7775390625 50.199609375 147.9990234375 50.173828125 148.219921875 50.1421875C148.4021484375 50.11640625 148.58203125 50.08125 148.7666015625 50.0630859375C149.5869140625 49.9822265625 150.413671875 49.9822265625 151.233984375 50.0630859375C151.4185546875 50.08125 151.5984375 50.1158203125 151.7806640625 50.1421875C152.0015625 50.173828125 152.223046875 50.199609375 152.4427734375 50.24296875C152.6525390625 50.2845703125 152.855859375 50.3419921875 153.0615234375 50.394140625C153.25078125 50.4416015625 153.441796875 50.483203125 153.629296875 50.5400390625C153.830859375 50.6009765625 154.0259765625 50.6765625 154.2228515625 50.7474609375C154.4103515625 50.81484375 154.5990234375 50.8763671875 154.78359375 50.9525390625C154.967578125 51.0287109375 155.14453125 51.118359375 155.323828125 51.2033203125C155.5142578125 51.29296875 155.705859375 51.37734375 155.8921875 51.476953125C156.064453125 51.5689453125 156.2279296875 51.6744140625 156.3955078125 51.7740234375C156.5783203125 51.8830078125 156.762890625 51.9861328125 156.941015625 52.105078125C157.1255859375 52.2287109375 157.299609375 52.36640625 157.4771484375 52.4994140625C157.6259765625 52.6107421875 157.77890625 52.714453125 157.9236328125 52.8333984375C158.239453125 53.09296875 158.5435546875 53.366015625 158.832421875 53.6548828125C158.834765625 53.6572265625 158.837109375 53.658984375 158.839453125 53.661328125L246.3392578125 141.1611328125C251.220703125 146.042578125 251.220703125 153.957421875 246.3392578125 158.8388671875S233.54296875 163.7203125 228.6615234375 158.8388671875L162.4998046875 92.677734375V287.5001953125C162.4998046875 294.4037109375 156.903515625 300 150 300S137.5001953125 294.4037109375 137.5001953125 287.5001953125V92.677734375L71.3390625 158.8388671875C66.4576171875 163.7203125 58.5427734375 163.7203125 53.661328125 158.8388671875S48.7798828125 146.042578125 53.661328125 141.1611328125L141.1611328125 53.661328125zM237.4998046875 25.0001953125H62.5001953125C55.5966796875 25.0001953125 50.000390625 19.40390625 50.000390625 12.500390625S55.5966796875 0 62.5001953125 0H237.500390625C244.40390625 0 250.0001953125 5.5962890625 250.0001953125 12.4998046875S244.4033203125 25.0001953125 237.4998046875 25.0001953125z" />
    <glyph glyph-name="032-phone-call"
      unicode="&#xF11E;"
      horiz-adv-x="300" d="M214.7595 0C207.1435 0 197.96525 2.735 187.22475 8.2025C176.6795 13.8675 165.2555 21.1925 152.95275 30.175C140.65 39.355 127.9565 49.7075 114.87275 61.2305C101.984 72.754 89.29075 84.47275 76.79275 96.38675C64.49 108.1055 53.65175 120.703 44.27825 134.17975C34.90475 147.461 26.99575 160.54675 20.551475 173.4375C14.30245 186.32825 9.4204 198.53525 5.905325 210.0585C2.585525 221.38675 0.6327125 230.957 0.04686775 238.7695C-0.3436975 245.80075 1.706765 252.73425 6.19825 259.57025C10.49445 266.6015 16.06 272.8515 22.89485 278.3203C29.925 283.984375 37.541 288.769525 45.74275 292.675775C53.94475 296.582025 61.756 299.0234375 69.17675 300L110.47875 216.211L89.68125 192.1875C91.8295 188.67175 97.68775 181.05475 107.25675 169.336C116.8255 157.61725 126.39425 146.875 135.96325 137.10925C145.532 127.539 155.49125 118.35925 165.84125 109.57025C176.3865 100.9765 183.41675 95.703 186.93175 93.7499999999999L216.517 115.72275S219.6415 114.3555 225.8905000000001 111.621C232.1395000000001 108.88675 239.4625000000001 105.664 247.85975 101.953C256.2575000000001 98.4374999999999 264.6550000000001 94.7265 273.05 90.82025C281.4475000000001 86.914 287.795 83.88675 292.0900000000001 81.73825C292.0900000000001 81.73825 292.8725 81.05475 294.435 79.6875S297.3625 75.879 298.535 72.36325C299.5125 68.84775 300 66.3085 300 64.746V62.69525C296.485 47.655 289.1625 35.9375 278.03 27.54C267.095 19.14 255.085 12.0125 242.00125 6.1525C242.00125 6.1525 240.732 5.665 238.19325 4.6875S232.33475 2.735 228.23375 1.7575C223.93775 0.585 220.618 0 218.2745 0S214.7595 0 214.7595 0z" />
    <glyph glyph-name="033-filter"
      unicode="&#xF11F;"
      horiz-adv-x="300" d="M260.625 248.749875C258.5525 252.895125 255.36375 256.378875 251.41625 258.808375C247.4700000000001 261.237875 242.9225 262.516375 238.2875 262.499875H61.713125C57.084 262.49875 52.546125 261.2125 48.605 258.784375C44.664 256.356125 41.474375 252.8815 39.39175 248.747375S36.41525 239.982 36.809625 235.36975C37.204125 230.7575 38.871375 226.345375 41.625625 222.624875C41.788125 222.399875 41.950625 222.187375 42.138125 221.974875L112.375625 139.15L112.500625 87.5C112.500625 85.55875 112.952375 83.645 113.82025 81.91C114.688125 80.17375 115.948125 78.66375 117.500625 77.5L167.5 40.0000000000001C169.3575 38.6075 171.56625 37.75875 173.8775 37.55C176.19 37.34125 178.515 37.78125 180.59125 38.8200000000001C182.6675 39.8575 184.41375 41.45375 185.63375 43.42875C186.85375 45.4025000000001 187.5 47.67875 187.5 50.0000000000001L187.625 139.1750000000001L258.375 222.624875C261.14375 226.339125 262.82125 230.7520000000001 263.2175000000001 235.3671250000001C263.615 239.9823750000001 262.7175000000001 244.6170000000001 260.625 248.7498750000001z" />
    <glyph glyph-name="034-growth"
      unicode="&#xF120;"
      horiz-adv-x="300" d="M297.425390625 231.537890625L231.5267578125 297.4359375C228.2537109375 300.8408203125 222.3697265625 300.840234375 219.097265625 297.4359375L153.19921875 231.537890625C150.685546875 229.02421875 149.9337890625 225.24375 151.29375 221.9595703125C152.654296875 218.675390625 155.859375 216.5337890625 159.413671875 216.5337890625H188.2810546875V8.799609375C188.2810546875 3.945703125 192.2162109375 0.010546875 197.0701171875 0.010546875H253.5544921875C258.4083984375 0.010546875 262.3435546875 3.945703125 262.3435546875 8.799609375V216.5337890625H291.2109375C294.7658203125 216.5337890625 297.9708984375 218.675390625 299.330859375 221.9595703125S299.9390625 229.0236328125 297.425390625 231.5378906250001zM159.4142578125 177.6275390625H102.9298828125C98.0759765625 177.6275390625 94.1408203125 173.6923828125 94.1408203125 168.8384765625V8.799609375C94.1408203125 3.945703125 98.0759765625 0.010546875 102.9298828125 0.010546875H159.4142578125C164.2681640625 0.010546875 168.2033203125 3.945703125 168.2033203125 8.799609375V168.8384765625C168.2033203125 173.6923828125 164.2681640625 177.6275390625 159.4142578125 177.6275390625zM65.2734375 102.315234375H8.7890625C3.93515625 102.315234375 0 98.380078125 0 93.526171875V8.799609375C0 3.945703125 3.93515625 0.010546875 8.7890625 0.010546875H65.2734375C70.12734375 0.010546875 74.0625 3.945703125 74.0625 8.799609375V93.526171875C74.0625 98.380078125 70.12734375 102.315234375 65.2734375 102.315234375z" />
    <glyph glyph-name="035-heart"
      unicode="&#xF121;"
      horiz-adv-x="300" d="M211.3897577653306 287.8100676511239C189.0576125700153 287.8100676511239 166.9918891394486 279.4009602095003 150.0027278678985 264.8241434494799C133.0090201498509 279.4018694987998 110.9432967192842 287.8100676511239 88.6102422346694 287.8100676511239C38.9221284643922 287.8100676511239 0 248.8870298974322 0 199.198916127155C0 139.1358114497709 41.8182148832473 102.4241652724231 105.1174801774933 46.853859023787C110.5277515094202 42.1037317232851 116.1116970975486 37.2026623990689 121.857496180985 32.121553793555C121.8975049101623 32.0860915108751 121.93660435004 32.0515385174948 121.9766130792173 32.0169855241144L141.088055575762 15.5079290026915C143.6486142431076 13.2956281370481 146.8265803448025 12.1899323488761 150.0045464464975 12.1899323488761S156.3613879391868 13.2965374263476 158.9219466065324 15.508838291991L178.0297519458791 32.0178948134138C178.0697606750564 32.0524478067942 178.1088601149342 32.0870008001746 178.1488688441115 32.1215537935549C215.980759438423 65.5806721466501 244.346948425111 91.195351713101 264.8677893358552 116.1753473485124C288.8366552702409 145.3526223903397 300.0009092892995 171.7338328362552 300.0009092892995 199.1980068378555C300 248.8870298974322 261.0778715356078 287.8100676511239 211.3897577653306 287.8100676511239zM160.1303920855459 52.6042045537208L150.0027278678985 43.8541136247908L139.8686986251546 52.6087510002182C134.1183530952207 57.6934967629301 128.529861060595 62.6000218229432 123.1141339928712 67.3546955699425C63.3510947843166 119.8197788608424 27.2786789845057 151.4875972939551 27.2786789845057 199.198916127155C27.2786789845057 234.1647268494945 53.6453408016294 260.5313886666182 88.6102422346694 260.5313886666182C107.6371208263621 260.5313886666182 127.1722921364662 251.4112169927984 139.5904560995126 236.7298319633375C142.1828398923402 233.665527024078 145.9927620571761 231.8987779151815 150.0054557357969 231.8987779151815C154.0190587037172 231.8987779151815 157.8280715792537 233.6664363133775 160.4195460827817 236.7316505419364C172.8322543100313 251.4121262820979 192.3637884629374 260.5313886666182 211.3906670546302 260.5313886666182C246.3546591983706 260.5313886666182 272.7213210154943 234.1647268494944 272.7213210154943 199.198916127155C272.7213210154943 154.3736815305158 232.0397177566014 116.2017167381974 160.1303920855459 52.6042045537208z" />
    <glyph glyph-name="036-share"
      unicode="&#xF122;"
      horiz-adv-x="300" d="M220.3125 117.1875C204.14296875 117.1875 189.4828125 110.60390625 178.8703125 99.976171875L134.0607421875 128.171484375C136.7806640625 134.921484375 138.28125 142.2884765625 138.28125 150S136.7806640625 165.078515625 134.061328125 171.8279296875L178.8708984375 200.0232421875C189.4828125 189.39609375 204.14296875 182.8125 220.3125 182.8125C252.6216796875 182.8125 278.90625 209.09765625 278.90625 241.40625S252.6216796875 300 220.3125 300S161.71875 273.71484375 161.71875 241.40625C161.71875 233.6947265625 163.2193359375 226.327734375 165.938671875 219.577734375L121.1296875 191.382421875C110.5177734375 202.01015625 95.85703125 208.59375 79.6875 208.59375C47.3783203125 208.59375 21.09375 182.30859375 21.09375 150S47.3783203125 91.40625 79.6875 91.40625C95.85703125 91.40625 110.5171875 97.9904296875 121.1296875 108.617578125L165.938671875 80.422265625C163.2193359375 73.672265625 161.71875 66.305859375 161.71875 58.59375C161.71875 26.28515625 188.0033203125 0 220.3125 0S278.90625 26.28515625 278.90625 58.59375S252.6216796875 117.1875 220.3125 117.1875zM220.3125 276.5625C239.69765625 276.5625 255.46875 260.79140625 255.46875 241.40625S239.69765625 206.25 220.3125 206.25S185.15625 222.02109375 185.15625 241.40625S200.92734375 276.5625 220.3125 276.5625zM79.6875 114.84375C60.30234375 114.84375 44.53125 130.61484375 44.53125 150S60.30234375 185.15625 79.6875 185.15625S114.84375 169.38515625 114.84375 150S99.07265625 114.84375 79.6875 114.84375zM220.3125 23.4375C200.92734375 23.4375 185.15625 39.20859375 185.15625 58.59375S200.92734375 93.75 220.3125 93.75S255.46875 77.97890625 255.46875 58.59375S239.69765625 23.4375 220.3125 23.4375z" />
    <glyph glyph-name="037-read"
      unicode="&#xF123;"
      horiz-adv-x="300" d="M37.463379330132 287.5370082665512A12.5012515354528 12.5012509448425 0 0 1 25.0122041734205 274.9634653554817V25.0124496059074A12.5012515354528 12.5012509448425 0 0 1 37.463379330132 12.463473623198H262.4145679120405A12.5012515354528 12.5012509448425 0 0 1 274.9878043305166 25.0124496059074V274.9634653554817A12.5012515354528 12.5012509448425 0 0 1 262.4145679120405 287.5370082665512zM49.914558266371 262.5122846452827H187.5122155513735V162.4880358271488A12.5030789370564 12.5030783463597 0 0 1 212.5122175198775 162.4880358271488V262.5122846452827H249.9633913380062V37.4636303161064H49.914558266371z" />
    <glyph glyph-name="038-video-camera"
      unicode="&#xF124;"
      horiz-adv-x="300" d="M294.9211809980601 223.4033737420663C291.7627708127994 225.3564276252598 287.8177400824916 225.5347199116072 284.4961045646592 223.874843837302L214.2853555487196 188.764447011407V214.2859833384603C214.2853555487196 232.0379938351048 199.8945313235691 246.4288180602553 182.1425208269246 246.4288180602553H32.142834721795C14.3908242251505 246.4288180602553 0 232.0379938351048 0 214.2859833384603V85.7146444512804C0 67.9626339546359 14.3908242251505 53.5718097294854 32.142834721795 53.5718097294854H182.1425208269246C199.8945313235691 53.5718097294854 214.2853555487196 67.9626339546359 214.2853555487196 85.7146444512804V111.2361807783337L284.4961045646592 76.0717940347419C289.7896276579048 73.4269158573411 296.2244724996704 75.5733289806578 298.8699784668119 80.8668520739034C299.6220705761226 82.3716640822656 300.0094168461099 84.0327957360521 300 85.7146444512804V214.2859833384603C300.001883369222 217.9999874442052 298.0802189730616 221.4496920691322 294.9211809980601 223.4033737420663zM192.8570083307699 85.7146444512804C192.8570083307699 79.7970983558187 188.0600669223863 75.0001569474352 182.1425208269246 75.0001569474352H32.142834721795C26.2252886263333 75.0001569474352 21.4283472179498 79.7970983558187 21.4283472179498 85.7146444512804V214.2859833384603C21.4283472179498 220.203529433922 26.2252886263333 225.0004708423055 32.142834721795 225.0004708423055H182.1425208269246C188.0600669223863 225.0004708423055 192.8570083307699 220.203529433922 192.8570083307699 214.2859833384603V85.7146444512804zM278.5710249923096 103.0498025601266L214.2853555487196 135.1926372819215V164.8067349283378L278.5710249923095 196.9495696501328V103.0498025601266zM107.1429916692301 192.8570083307699C83.473435077124 192.8570083307699 64.28566944359 173.6692426972359 64.28566944359 149.9996861051297S83.473435077124 107.1423638794895 107.1429916692301 107.1423638794895S150.0003138948703 126.3301295130235 150.0003138948703 149.9996861051297S130.8119204715957 192.8570083307699 107.1429916692301 192.8570083307699zM107.1429916692301 128.5713388871799C95.3085272680474 128.5713388871799 85.7146444512804 138.1652217039469 85.7146444512804 149.9996861051297C85.7146444512804 161.8341505063124 95.3085272680474 171.4280333230795 107.1429916692301 171.4280333230795S128.5713388871799 161.8341505063124 128.5713388871799 149.9996861051297C128.5713388871799 138.1652217039469 118.9774560704129 128.5713388871799 107.1429916692301 128.5713388871799z" />
    <glyph glyph-name="039-volume-up"
      unicode="&#xF125;"
      horiz-adv-x="300" d="M231.7211515361042 90.3978108391588C229.4370645556343 88.1371624115927 226.4568525539234 87.0085960892775 223.4783984436801 87.0085960892775C220.4589268658553 87.0085960892775 217.4394552880305 88.1682184941902 215.147750777867 90.4845334849027C210.5948118763148 95.0855214199076 210.6340714524285 102.5055813054102 215.2338874597882 107.0579342431399C238.1989815948763 129.785127066255 238.3929356201548 166.9598438992377 215.6651568332171 189.9255239981484C211.1122179316649 194.5265119331533 211.1514775077787 201.946571818656 215.7512935151384 206.4989247563856C220.3522814501433 211.0512776941152 227.772341335646 211.0114321541788 232.3246942733756 206.4127880744643C264.1437017678529 174.2597812011087 263.872400517992 122.2162323698135 231.7211515361041 90.3978108391588zM159.3821597454573 227.4430296673484V72.5475949114902C159.3821597454573 56.8742345847568 149.9106405170545 43.1626811360667 135.2515835672306 37.6153616275731C130.8715039933435 35.9582559372785 126.354894848792 35.1537276088574 121.899811905613 35.1531416450349C111.469655863447 35.1525556812123 101.3693974534012 39.5601755547613 94.0975864150148 47.7560515413778L60.2698949366866 85.0596804153312C56.2783093771791 89.4608546868317 49.8889598556185 91.9846008707422 43.9472866945195 91.9846008707422C19.7147528111614 91.9846008707422 0 111.6993536819037 0 135.9318875652618V160.5423681141927C0 184.7749019975507 19.7147528111614 204.4896548087122 43.9472866945195 204.4896548087122C50.1719803819312 204.4896548087122 56.0456817396094 207.2167304390627 60.0630497073111 211.9718268594097L93.4084929596447 251.4364903110882C103.6124669662895 263.6110606531153 119.849524490358 267.9723893846795 134.7828125091557 262.5492942065757C149.7260619129375 257.1215113178913 159.3821597454573 243.3414001019578 159.3821597454573 227.4430296673484zM135.9436068417136 227.4430296673484C135.9436068417136 236.4879672329031 128.9307918129135 239.7371366291846 126.7814765116402 240.5182264047018C125.8726466227975 240.848124036822 124.0127974498855 241.3977581024148 121.7316402885286 241.3977581024148C118.6172425714436 241.3977581024148 114.7141375491477 240.3740793043438 111.3641823753801 236.3707744683844C111.3518771351057 236.3567113366421 77.9665883428357 196.8439988515109 77.9665883428357 196.8439988515109C69.4865199022612 186.8081964619504 57.0869394523582 181.0511019049684 43.9472866945195 181.0511019049684C32.6387708822857 181.0511019049684 23.4385529037437 171.8508839264264 23.4385529037437 160.5423681141926V135.9318875652617C23.4385529037437 124.623371753028 32.6387708822857 115.423153774486 43.9472866945195 115.423153774486C56.4892563533127 115.423153774486 69.2070151588841 110.0943987718198 77.6320030001348 100.804528328421C77.6320030001348 100.804528328421 111.5721995324009 63.3760891602552 111.6055994702887 63.3385874756093C117.5085990190965 56.6544981512841 124.8472099332587 58.7393574320721 126.9555077669505 59.5374401584446C129.0643915644648 60.3349369209945 135.9436068417136 63.6309834230834 135.9436068417136 72.5475949114901zM263.56242565584 237.3253095353893C259.0094867542878 241.9257115065716 251.5888409049625 241.965557046508 246.9890248976028 237.4114462173106C242.3886229264205 232.8585073157584 242.3499493141294 225.4384474302557 246.9028882156816 220.8380454590734C286.6763546018669 180.647958795024 286.3376675124078 115.5930832830381 246.148166812181 75.8202028606754C241.5477648409987 71.2672639591232 241.5090912287076 63.8472040736205 246.0620301302598 59.2468021024382C248.3543206042459 56.9310730755483 251.3726202544256 55.770864706813 254.3926777960729 55.770864706813C257.3711319063161 55.770864706813 260.3513439080272 56.8994310291283 262.635430888497 59.1600794566944C286.5538881629449 82.8312599980077 299.8236248893994 114.399474976415 299.9988280723549 148.0502053803198S287.2330202333308 213.4062662971189 263.5624256558401 237.3253095353893zM182.4328045986441 173.5249825675763C177.8324026274618 168.9720436660241 177.7937290151706 161.5519837805214 182.3466679167229 156.9515818093391C186.8919892885813 152.3587973678505 186.8533156762902 144.924088386783 182.2605312348016 140.3787670149245C177.6601292636193 135.8258281133723 177.6214556513281 128.4057682278696 182.1743945528804 123.8053662566873C184.4666850268665 121.4896372297975 187.4849846770461 120.3294288610621 190.5050422186935 120.3294288610621C193.4834963289367 120.3294288610621 196.4637083306477 121.4585811472 198.7477953111175 123.7186436109434C212.5273205632285 137.3546077265189 212.643341400102 159.6593206335441 199.0067913207039 173.438845885655C194.4538524191517 178.0386618930147 187.0332065698264 178.0773355053059 182.4328045986441 173.5249825675763z" />
    <glyph glyph-name="040-language"
      unicode="&#xF126;"
      horiz-adv-x="300" d="M114.67265625 142.9341796875C114.1916015625 145.3423828125 97.6201171875 228.1998046875 97.09453125 230.825390625C96.2736328125 234.9333984375 92.666015625 237.890625 88.4765625 237.890625H70.8984375C66.708984375 237.890625 63.1013671875 234.9333984375 62.28046875 230.825390625C61.7466796875 228.1552734375 45.158203125 145.2134765625 44.70234375 142.934765625C43.7501953125 138.174609375 46.8375 133.54453125 51.5970703125 132.59296875C56.356640625 131.6408203125 60.9873046875 134.728125 61.9388671875 139.4876953125L67.5568359375 167.578125H91.8181640625L97.4361328125 139.487109375C98.38828125 134.7251953125 103.020703125 131.640234375 107.7779296875 132.5923828125C112.5375 133.54453125 115.6248046875 138.174609375 114.67265625 142.9341796875zM71.0724609375 185.15625L78.1037109375 220.3125H81.2712890625L88.3025390625 185.15625H71.0724609375zM255.46875 167.578125H229.1015625V176.3671875C229.1015625 181.22109375 225.16640625 185.15625 220.3125 185.15625S211.5234375 181.22109375 211.5234375 176.3671875V167.578125H185.15625C180.30234375 167.578125 176.3671875 163.64296875 176.3671875 158.7890625S180.30234375 150 185.15625 150H187.283203125C192.2912109375 133.82109375 199.8310546875 121.402734375 208.1279296875 111.451171875C201.375 105.27421875 194.541796875 100.2087890625 188.455078125 95.3396484375C184.6646484375 92.307421875 184.05 86.7767578125 187.0828125 82.986328125C190.116796875 79.194140625 195.648046875 78.5830078125 199.4361328125 81.6140625C205.5568359375 86.5107421875 212.893359375 91.95234375 220.3125 98.7609375C227.7369140625 91.94765625 235.0869140625 86.49609375 241.1888671875 81.6140625C244.979296875 78.58125 250.510546875 79.196484375 253.5421875 82.986328125C256.5744140625 86.7767578125 255.959765625 92.3080078125 252.169921875 95.3396484375C246.0990234375 100.19765625 239.25703125 105.268359375 232.4970703125 111.451171875C240.7939453125001 121.402734375 248.3337890625 133.82109375 253.341796875 150H255.46875C260.32265625 150 264.2578125 153.93515625 264.2578125 158.7890625S260.32265625 167.578125 255.46875 167.578125zM220.3125 124.3681640625C214.7021484375 131.4111328125 209.6548828125 139.817578125 205.8498046875 150.05859375H234.774609375C230.9701171875 139.817578125 225.9228515625 131.4111328125 220.3125 124.3681640625zM273.6328125 246.6796875H146.8353515625L143.0677734375 276.903515625C141.421875 290.070703125 130.17421875 300 116.9044921875 300H26.3671875C11.8283203125 300 0 288.1716796875 0 273.6328125V79.6875C0 65.1486328125 11.8283203125 53.3203125 26.3671875 53.3203125H100.4783203125L104.1978515625 23.096484375C105.8408203125 9.9556640625 117.0884765625 0 130.36171875 0H273.6328125C288.1716796875 0 300 11.8283203125 300 26.3671875V220.3125C300 234.8513671875 288.1716796875 246.6796875 273.6328125 246.6796875zM26.3671875 70.8984375C21.5208984375 70.8984375 17.578125 74.8412109375 17.578125 79.6875V273.6328125C17.578125 278.4791015625 21.5208984375 282.421875 26.3671875 282.421875H116.9044921875C121.327734375 282.421875 125.0771484375 279.1125 125.625 274.726171875C126.898828125 264.509765625 149.7703125 81.0328125 151.03359375 70.8984375H26.3671875zM121.12734375 29.443359375L118.1888671875 53.3203125H141.7693359375L121.12734375 29.443359375zM282.421875 26.3671875C282.421875 21.5208984375 278.4791015625001 17.578125 273.6328125 17.578125H134.105859375L167.565234375 56.2810546875C169.2779296875 58.212890625 170.0455078125 60.7775390625 169.6916015625 63.3263671875L149.0267578125 229.1015625H273.6328125C278.4791015625001 229.1015625 282.421875 225.1587890625 282.421875 220.3125V26.3671875z" />
    <glyph glyph-name="041-clock"
      unicode="&#xF127;"
      horiz-adv-x="300" d="M150 300C67.29145894147 300 0 232.70854105853 0 150S67.29145894147 1e-13 150 1e-13S300 67.29145894147 300 150S232.70854105853 300 150 300zM150 18.7500845939715C77.6274887546414 18.7500845939715 18.7500845939715 77.6274887546414 18.7500845939715 150S77.6274887546414 281.2499154060285 150 281.2499154060285S281.2499154060285 222.3725112453586 281.2499154060285 150S222.3725112453586 18.7500845939715 150 18.7500845939715zM159.3750422969858 243.7497462180856H140.6249577030143V146.1181518360276L199.6214701755494 87.1216393634924L212.8783606365076 100.3785298244506L159.3750422969857 153.8818481639725z" />
    <glyph glyph-name="042-quality"
      unicode="&#xF128;"
      horiz-adv-x="300" d="M255.46875 194.53125C255.46875 252.68671875 208.1560546875 300 150 300S44.53125 252.68671875 44.53125 194.53125S91.84453125 89.0625 150 89.0625S255.46875 136.37578125 255.46875 194.53125zM150 112.5C104.76796875 112.5 67.96875 149.29921875 67.96875 194.53125S104.76796875 276.5625 150 276.5625S232.03125 239.76328125 232.03125 194.53125S195.2326171875 112.5 150 112.5zM81.9380859375 48.98671875L71.2599609375 73.34765625L42.5390625 73.341796875L62.677734375 105.4412109375L42.823828125 117.8970703125L0 49.8955078125L55.9447265625 49.9072265625L77.7849609375 0L121.7396484375 66.800390625L102.167578125 79.6939453125zM257.1767578125 117.8970703125L237.3228515625 105.4412109375L257.4615234375001 73.341796875L228.7400390625 73.34765625L218.0625 48.98671875L197.832421875 79.6939453125L178.2603515625 66.800390625L222.215625 0L244.055859375 49.9072265625L300 49.8955078125zM138.28125 187.66640625L114.8419921875 211.10390625L98.269921875 194.5306640625L138.2818359375 154.52109375L201.7294921875 217.96875L185.15625 234.54140625z" />
    <glyph glyph-name="043-bandwidth"
      unicode="&#xF129;"
      horiz-adv-x="300" d="M207.8994140625 188.2986328125C203.99765625 192.20859375 197.64375 192.20859375 193.7419921875 188.2986328125L161.9994140625 156.5671875C158.334375 158.2552734375 154.285546875 159.2009765625 150 159.2009765625C134.0988281250001 159.2009765625 121.18359375 146.2763671875 121.18359375 130.3810546875C121.18359375 114.4951171875 134.0994140625001 101.5640625 150 101.5640625C165.8712890625001 101.5640625 178.8169921875 114.49453125 178.8169921875 130.3810546875C178.8169921875 134.6666015625 177.8712890625001 138.73359375 176.1861328125 142.3921875L207.8994140625 174.123046875C211.8298828125001 178.0365234375 211.8298828125001 184.38515625 207.8994140625 188.2986328125zM79.871484375 54.4078125L47.80078125 19.6201171875L40.444921875 27.46171875C16.8673828125 52.59609375 2.5224609375 85.2638671875 0.0515625 119.6419921875L0 120.36328125H47.4955078125C49.6810546875 98.3953125 58.9095703125 77.55234375 73.7384765625 61.17890625zM252.2044921875 19.6259765625L220.088671875 54.4078125L226.2380859375 61.1853515625C241.0857421875 77.55 250.3177734375 98.3859375 252.47578125 120.36328125H300L299.9466796875 119.6326171875C297.4447265625 85.262109375 283.1326171875 52.5966796875 259.55390625 27.4611328125zM263.1029296875 229.3166015625L263.5705078125 228.7775390625C284.8681640625 204.2091796875 297.6404296875 173.5623046875 299.9484375 141.116015625L299.998828125 140.40234375H252.478125C250.5216796875 160.761328125 242.5177734375 179.9537109375 229.524609375 195.7376953125zM160.0189453125 280.3798828125V232.8755859375C180.3849609375 230.9015625 199.55625 222.896484375 215.349609375 209.902734375L248.9255859375 243.4787109375L248.3818359375 243.9509765625C223.828125 265.2603515625 193.1671875 278.023828125 160.72734375 280.3294921875zM51.0591796875 243.4927734375L51.5923828125 243.955078125C76.177734375 265.26328125 106.805859375 278.0244140625 139.2720703125 280.3294921875L139.9798828125 280.3798828125V232.8755859375C119.62734375 230.902734375 100.423828125 222.9046875 84.6486328125 209.902734375zM0.0005859375 140.40234375H47.4931640625C49.4765625 160.7583984375 57.4810546875 179.951953125 70.4759765625 195.737109375L36.896484375 229.316015625L36.43359375 228.7828125C15.108984375 204.2208984375 2.358984375 173.569921875 0.0509765625 141.116015625z" />
    <glyph glyph-name="044-edit"
      unicode="&#xF12A;"
      horiz-adv-x="300" d="M68.1818181818182 136.3636363636364V81.8181818181818C68.1818181818182 74.2872727272728 74.2872727272727 68.1818181818182 81.8181818181818 68.1818181818182H136.3636363636364C139.98 68.1818181818182 143.4481818181818 69.6190909090909 146.0054545454546 72.1763636363637L296.0045454545455 222.1763636363637C301.33 227.5018181818182 301.33 236.1354545454546 296.0045454545455 241.4609090909091L241.4590909090909 296.0063636363637C238.9036363636364 298.5627272727273 235.4345454545455 300 231.8181818181818 300S224.7327272727273 298.5627272727273 222.1763636363637 296.0054545454546L72.1763636363636 146.0054545454546C69.6181818181818 143.4490909090909 68.1818181818182 139.98 68.1818181818182 136.3636363636364zM95.4545454545455 130.7154545454546L231.8181818181818 267.0790909090909L267.0790909090909 231.8181818181818L130.7154545454545 95.4545454545455H95.4545454545455V130.7154545454546zM286.3636363636364 163.6354545454545C278.8327272727273 163.6354545454545 272.7272727272727 157.53 272.7272727272727 149.9990909090909V27.2727272727273H27.2727272727273V272.7272727272728H150C157.5309090909091 272.7272727272728 163.6363636363636 278.8327272727273 163.6363636363636 286.3636363636364S157.5309090909091 300 150 300H13.6363636363636C6.1054545454545 300 0 293.8945454545455 0 286.3636363636364V13.6363636363636C0 6.1054545454546 6.1054545454545 0 13.6363636363636 0H286.3636363636364C293.8945454545455 0 300 6.1054545454546 300 13.6363636363636V149.9990909090909C300 157.5309090909091 293.8945454545455 163.6354545454545 286.3636363636364 163.6354545454545z" />
    <glyph glyph-name="045-calendar"
      unicode="&#xF12B;"
      horiz-adv-x="300" d="M286.3634765625 272.7275390625H209.0912109375V286.3634765625C209.0912109375 293.89453125 202.9857421875 300 195.4546875 300C187.9236328125 300 181.8181640625 293.89453125 181.8181640625 286.3634765625V272.726953125H118.1818359375V286.3634765625C118.1818359375 293.89453125 112.0763671875 300 104.5453125 300S90.9087890625 293.89453125 90.9087890625 286.3634765625V272.726953125H13.6365234375C6.10546875 272.7275390625 0 266.6220703125 0 259.091015625V13.6365234375C0 6.10546875 6.10546875 0 13.6365234375 0H286.3640625C293.89453125 0 300 6.10546875 300 13.6365234375V259.091015625C300 266.6220703125 293.89453125 272.7275390625 286.3634765625 272.7275390625zM272.7275390625 27.2724609375H27.2724609375V190.908984375H272.726953125V27.2724609375zM272.7275390625 218.18203125H27.2724609375V245.4544921875H272.726953125V218.18203125zM86.363671875 100.0001953125H68.18203125C60.6509765625 100.0001953125 54.5455078125 93.8947265625 54.5455078125 86.363671875V68.18203125C54.5455078125 60.6509765625 60.6509765625 54.5455078125 68.18203125 54.5455078125H86.363671875C93.8947265625 54.5455078125 100.0001953125 60.6509765625 100.0001953125 68.18203125V86.3636718749999C100.0001953125 93.8947265625 93.8947265625 100.0001953125 86.363671875 100.0001953125z" />
    <glyph glyph-name="046-comment"
      unicode="&#xF12C;"
      horiz-adv-x="300" d="M0 35.4366531500346V182.2272772228266C0 227.6233804767085 36.9399663732569 264.5633468499654 82.3360696271388 264.5633468499654H217.6441499357136C263.0501434081694 264.5633468499654 300 227.6233804767085 300 182.2272772228266V156.9083176738206C300 111.5122144199387 263.0600336267432 74.5722480466818 217.6639303728613 74.5722480466818H84.2448818118881L0 35.4366531500346zM82.3360696271388 246.207101176936C47.0576599742854 246.207101176936 18.3562456730294 217.50568687568 18.3562456730294 182.2272772228266V64.2072989813075L80.1997824151914 92.938383938285H217.6639303728612C252.9423400257146 92.938383938285 281.6437543269706 121.6397982395411 281.6437543269706 156.9182078923944V182.2371674414005C281.6437543269706 217.5155770942538 252.9324498071408 246.2169913955099 217.6441499357136 246.2169913955099H82.3360696271388V246.207101176936zM88.388883394323 183.6217980417367C98.0318465038077 183.6217980417367 105.8451191771338 175.8085253684107 105.8451191771338 166.1655622589259S98.0318465038077 148.7093264761151 88.388883394323 148.7093264761151S70.9326476115122 156.5225991494412 70.9326476115122 166.1655622589259S78.7459202848383 183.6217980417367 88.388883394323 183.6217980417367zM211.6012263871032 183.6217980417367C221.2441894965879 183.6217980417367 229.057462169914 175.8085253684107 229.057462169914 166.1655622589259S221.2441894965879 148.7093264761151 211.6012263871032 148.7093264761151S194.1449906042924 156.5225991494412 194.1449906042924 166.1655622589259S201.9582632776185 183.6217980417367 211.6012263871032 183.6217980417367zM149.9851646721393 183.6217980417367C159.628127781624 183.6217980417367 167.4414004549501 175.8085253684107 167.4414004549501 166.1655622589259S159.628127781624 148.7093264761151 149.9851646721393 148.7093264761151S132.5289288893285 156.5225991494412 132.5289288893285 166.1655622589259S140.3422015626545 183.6217980417367 149.9851646721393 183.6217980417367z" />
    <glyph glyph-name="047-open-envelope"
      unicode="&#xF12D;"
      horiz-adv-x="300" d="M149.725 109.5875L267.125 192.9375C266.4 193.725375 265.6225 194.4645 264.8 195.15L165 266.8625C160.7075 270.0875 155.49 271.844625 150.12125 271.873875C144.75125 271.903125 139.515 270.203 135.1875 267.025L35 195C34.076375 194.23225 33.2115 193.396625 32.4125 192.5zM164.7625 89.2C160.52 86.04125 155.365 84.3475 150.075 84.375C144.63625 84.3625 139.34125 86.1175 134.9875 89.375L25 167.1625V50C25 43.37 27.633875 37.01125 32.322375 32.3225C37.01075 27.63375 43.369625 25 50 25H250C256.63 25 262.9887500000001 27.63375 267.6775 32.3225S275 43.37 275 50V167.8375z" />
    <glyph glyph-name="048-map-point"
      unicode="&#xF12E;"
      horiz-adv-x="300" d="M222.9031875 240.12928125A91.509375 91.509375 0 0 1 150.085734375 281.25C75.15309375 280.37371875 26.969953125 181.417171875 90.1164375 110.201203125C113.419125 83.007 145.396875 45.68390625 145.396875 23.365078125A4.689421875 4.689421875 0 0 1 154.774546875 23.36540625C154.774546875 45.68390625 186.752296875 83.007 210.05559375 110.202046875C243.0266718750001 145.948546875 248.7366093750001 200.274328125 222.9031875 240.12928125zM150.085734375 147.61875A39.88125 39.88125 0 0 0 110.23078125 187.47365625C112.21359375 240.2777812500001 187.965703125 240.263484375 189.940640625 187.47309375A39.88125 39.88125 0 0 0 150.085734375 147.61875z" />
    <glyph glyph-name="049-question"
      unicode="&#xF12F;"
      horiz-adv-x="300" d="M159.6 127.236H140.4V146.958A14.643 14.643 0 0 0 152.673 161.4A15.939 15.939 0 1 1 134.073 177.114H114.873A35.136 35.136 0 1 0 159.6 143.325zM137.721 100.011A12.279 12.279 0 0 1 162.279 100.011A12.279 12.279 0 0 1 137.721 100.011M232.8 164.721H248.274A21.741 21.741 0 0 0 270 142.98V116.88A21.741 21.741 0 0 0 248.259 95.139H232.8ANaN NaN NaN 0 0 232.8 95.139V164.721ANaN NaN NaN 0 0 232.8 164.721zM67.212 95.142H51.738A21.741 21.741 0 0 0 30.012 116.8830000000001V142.983A21.741 21.741 0 0 0 51.753 164.7240000000001H67.212ANaN NaN NaN 0 0 67.212 164.7240000000001V95.142ANaN NaN NaN 0 0 67.212 95.142zM228.618 232.233A111.189 111.189 0 0 1 39.744 168A27.579 27.579 0 0 0 51.744 170.73H59.601A92.007 92.007 0 0 0 240.396 170.73H248.262A27.552 27.552 0 0 0 260.262 167.997A110.85 110.85 0 0 1 228.618 232.233zM146.124 66.147H174.927A15.474 15.474 0 0 0 190.401 50.673V50.676A15.474 15.474 0 0 0 174.927 35.202H146.124A15.474 15.474 0 0 0 130.65 50.676V50.673A15.474 15.474 0 0 0 146.124 66.147zM248.259 89.142H244.959C241.959 70.755 225.975 56.676 206.757 56.676H195.54A21.336 21.336 0 0 0 195.54 44.676H206.763C233.121 44.676 254.847 64.893 257.247 90.639A27.531 27.531 0 0 0 248.259 89.142z" />
    <glyph glyph-name="050-trend"
      unicode="&#xF130;"
      horiz-adv-x="300" d="M0 300H300V0H0zM296.33875 233.838875C301.2200000000001 228.95725 301.2200000000001 221.04275 296.33875 216.161125L177.58875 97.41125C172.7075 92.53 164.7925 92.53 159.91125 97.41125L106.25 151.0725L21.338875 66.16125C16.45725 61.28 8.5427125 61.28 3.6611625 66.16125C-1.22038875 71.0425 -1.22038875 78.9575 3.6611625 83.83875L97.411125 177.588875C102.29275 182.470375 110.20725 182.470375 115.088875 177.588875L168.75 123.9275L278.66125 233.838875C283.5425 238.720375 291.4575 238.720375 296.33875 233.838875zM200 225C200 231.9035 205.59625 237.5 212.5 237.5H287.5C294.40375 237.5 300 231.9035 300 225V150C300 143.09625 294.40375 137.5 287.5 137.5S275 143.09625 275 150V212.5H212.5C205.59625 212.5 200 218.0965 200 225z" />
    <glyph glyph-name="051-trending"
      unicode="&#xF131;"
      horiz-adv-x="300" d="M200 225L228.75 196.25L167.5 135L117.5 185L25 92.5L42.5 75L117.5 150L167.5 100L246.25 178.75L275 150V225z" />
  </font>
</defs>
</svg>
